» » The Brecker Brothers - The Brecker Bros.

The Brecker Brothers - The Brecker Bros. mp3 album

Genre: Jazz
Performer: The Brecker Brothers
Title: The Brecker Bros.
Style: Fusion, Jazz-Funk
Date of release: 1991
Country: US
MP3 album size: 1966 mb
FLAC album size: 1127 mb
Digital formats: MMF ASF VOX MPC AAC MP1 VQF

The Brecker Brothers. SME (от лица компании "Arista/Legacy"); LatinAutor - UMPG, UBEM, CMRRA, UMPI, Rumblefish (Publishing), UMPG Publishing, BMI - Broadcast Music In. LatinAutor" и другие авторские общества (2).

Straphangin' is an album by the American jazz fusion group, the Brecker Brothers. It was released by Arista Records in 1981. Track listing 00:00 - 01.

is the debut album by the American jazz fusion group, the Brecker Brothers. It was released by Arista Records in 1975. Side one is solid jazz/funk/fusion". At the 1976 Grammy Awards the album received three nominations: Best R&B Instrumental Performance ("Sneakin’ up Behind You"), Best New Artist and Best Instrumental Arrangement (Randy Brecker for "Some Skunk Funk").

The Brecker Brothers was the musical duo of Michael (saxophone and EWI) and Randy Brecker (trumpet, flugelhorn), who recorded commercially successful jazz fusion albums together in the 1970s, 1980s, and 1990s. They had a notable hit single with "East River" in 1979. In addition to recording their own compositions, the brothers frequently played together as session musicians on albums of other artists.

Out of the Loop (Brecker Brothers album). Out of the Loop is an album by the Brecker Brothers that was released by GRP Records in 1994. In 1995 the album won the brothers two Grammy Awards for Best Contemporary Jazz Performance (now known as Best Contemporary Jazz Album) and Best Instrumental Composition (for Michael Brecker's "African Skies").

Don't Stop the Music (Brecker Brothers album). Don’t Stop the Music is an album by the American jazz fusion group, the Brecker Brothers. It was released by Arista Records in 1977.

The Brecker Brothers was the musical duo of the late Michael Brecker (saxophone and EWI) and Randy Brecker (trumpet and flugelhorn), who recorded several commercially successful jazz fusion albums together in the 1970s, 1990s, and 2000s. The two played together as session musicians on albums such as Parliament's Mothership Connection and also had prolific recording careers separately.

The Brecker Brothers - Volume 83 - George Whitty, Jamey Aebersold Play-A-Long. Открывайте новую музыку каждый день. Лента с персональными рекомендациями и музыкальными новинками, радио, подборки на любой вкус, удобное управление своей коллекцией. Миллионы композиций бесплатно и в хорошем качестве. The Brecker Brothers - Volume 83. Исполнители: George Whitty, Jamey Aebersold Play-A-Long.

The Brecker Brothers - LIVE - Dennis Chambers, Mike Stern, The Brecker Brothers, George Whitty, James Genus.

Tracklist Hide Credits

1 Some Skunk Funk 5:50
2 Sponge 4:06
3 A Creature Of Many Faces 7:41
4 Twilight 5:44
5 Sneakin' Up Behind You
Composed By – Dave Sanborn*, Don Grolnick, Michael Brecker, Randy Brecker, Will LeeDrums [Additional] – Christopher Parker*Lyrics By, Vocals – Will Lee
4:54
6 Rocks 4:39
7 Levitate 4:32
8 Oh My Stars
Vocals, Lyrics By – Randy Brecker
3:14
9 D.B.B. 4:46

Companies, etc.

  • Manufactured By – BMG Victor Inc.
  • Copyright (c) – BMG Music
  • Recorded At – Secret Sound
  • Remixed At – Sound Ideas Studios

Credits

  • Alto Saxophone – Dave Sanborn*
  • Art Direction – Bob Heimall*
  • Design – Arton Associates*
  • Drums – Harvey Mason
  • Electric Bass – Will Lee
  • Engineer [Assistant Remix] – David Stone, Leanne Unger*
  • Engineer [Recording, Remix] – Gerald Block
  • Executive-Producer – Steve Backer
  • Guitar – Bob Mann
  • Keyboards – Don Grolnick
  • Percussion – Ralph MacDonald
  • Photography By – John Paul Endress
  • Producer, Trumpet, Trumpet [Electric], Composed By, Arranged By, Flugelhorn – Randy Brecker
  • Tenor Saxophone – Michael Brecker

Notes

Recorded at Secret Sound Studios, NY, Jan. '75.
Remixed at Sound Ideas Studios, NY, Jan. '75.

Liner notes in both English and Japanese.
CD comes in standard jewel case. One spine printed in Japanese, the other in English.

Other versions

Category Artist Title (Format) Label Category Country Year
AL 4037 The Brecker Brothers The Brecker Bros. ‎(LP, Album) Arista AL 4037 US 1975
AB 4037 The Brecker Brothers The Brecker Bros. ‎(LP, Album, RE) Arista AB 4037 US 1975
‎3C 064-96 827 The Brecker Brothers The Brecker Bros. ‎(LP) Arista ‎3C 064-96 827 Italy 1975
OW 31449 The Brecker Brothers The Brecker Bros. ‎(CD, Album, RE) One Way Records OW 31449 US Unknown
BVCJ-37059 The Brecker Brothers The Brecker Bros. ‎(CD, Album) Arista BVCJ-37059 Japan 1999


Comments to album The Brecker Brothers - The Brecker Bros.
Gavidor
foobar2000 1.3.17 / Dynamic Range Meter 1.1.1log date: 2019-02-13 19:45:04--------------------------------------------------------------------------------Analyzed: The Brecker Brothers / Brecker Bros. [JP 1991 CD]--------------------------------------------------------------------------------DR Peak RMS Duration Track--------------------------------------------------------------------------------DR15 -1.71 dB -18.79 dB 5:53 01-Some Skunk FunkDR14 -1.97 dB -19.15 dB 4:07 02-SpongeDR14 -1.71 dB -19.39 dB 7:44 03-A Creature of Many FacesDR14 -2.02 dB -19.29 dB 5:46 04-TwilightDR15 -0.67 dB -19.74 dB 4:56 05-Sneakin' Up Behind YouDR14 -3.41 dB -19.53 dB 4:40 06-RocksDR12 -3.80 dB -19.87 dB 4:34 07-LevitateDR14 -1.51 dB -19.39 dB 3:16 08-Oh My StarsDR14 -2.57 dB -19.70 dB 4:46 09-D.B.B.--------------------------------------------------------------------------------Number of tracks: 9Official DR value: DR14Samplerate: 44100 HzChannels: 2Bits per sample: 16Bitrate: 857 kbpsCodec: ALAC================================================================================
Related to The Brecker Brothers - The Brecker Bros.
Rare Silk - New Weave mp3 download
Rare Silk - New Weave mp3 album
Kate Taylor = ケイト・テイラー - Kate Taylor mp3 download
Kate Taylor = ケイト・テイラー - Kate Taylor mp3 album
Michael Franks - Objects Of Desire mp3 download
Michael Franks - Objects Of Desire mp3 album
Pat Metheny, Charlie Haden, Jack DeJohnette, Dewey Redman, Mike Brecker - 80/81 mp3 download
Pat Metheny, Charlie Haden, Jack DeJohnette, Dewey Redman, Mike Brecker - 80/81 mp3 album
Randy Brecker - In The Idiom mp3 download
Randy Brecker - In The Idiom mp3 album
David Sanborn - Straight To The Heart mp3 download
David Sanborn - Straight To The Heart mp3 album
Billy Cobham - Crosswinds mp3 download
Billy Cobham - Crosswinds mp3 album
Eric Clapton - August mp3 download
Eric Clapton - August mp3 album
Randy Brecker - Randy In Brasil mp3 download
Randy Brecker - Randy In Brasil mp3 album